Diese Website verwendet Cookies, um Dein Surferlebnis zu verbessern. Durch die weitere Nutzung der Website stimmst Du der Verwendung von Cookies zu.   Erfahre mehr.
Zustimmen
Diese Community verwendet Tracking-Tools Matomo zur Verbesserung des Angebots. Mit Zustimmung hilfst Du uns unsere Seite zu verbessern und akzeptieren unsere Datenschutzerklärung. Vielen Dank!   Erfahren mehr.
Nicht Zustimmen Zustimmen
Harry

Fehlerhafte Metadaten in RTL Streams

Zur Zeit enthalten viele Streams auf RTL fehlerhafte Metadaten. "Das Supertalent" enthält z.B. folgende Informationen (ffprobe) :

Input #0, mpegts, from 'Das-Supertalent.ts':
Duration: 18:54:52.14, start: 11964.202544, bitrate: 250 kb/s
Program 12101
Metadata:
service_name : RTL-Television
service_provider: Unitymedia
Stream #0:0[0x20b]: Video: mpeg2video (Main) ([2][0][0][0] / 0x0002), yuv420p(tv, top first), 720x576 [SAR 64:45 DAR 16:9], 25 fps, 25 tbr, 90k tbn, 50 tbc
Stream #0:1 0x20c , 48000 Hz, stereo, s16p, 192 kb/s
Stream #0:2 0x20d , 48000 Hz, stereo, fltp, 384 kb/s
Stream #0:3 0x60f
No Program
Stream #0:4[0x210]: Audio: mp3, 0 channels, s16p

Das ist natürlich Unsinn. Eine einzelne Sendung dauert keine 18 Stunden und die Bitrate ist auch falsch. Das ist sehr lästig und bringt meinen Digitalen Videorekorder durcheinander. Erst nach einer manuellen Konvertierung mit ffmpeg lässt sich der Stream verwenden.

Wäre nett, wenn die Streams korrekt gesendet würden.

Harry
Speichern Abbrechen
Konnte dir geholfen werden?
  • Ja
Dieser Beitrag wurde geschlossen.
Es ist nicht möglich, Kommentare zu schreiben. Du kannst aber jederzeit eine Frage stellen.
Frage stellen
1 Kommentar
2017-10-02T02:02:02Z
  • Montag, 02.10.2017 um 04:02 Uhr
Und was können wir anderen Kunden dabei für dich tun?